<?xml version="1.0" standalone="no"?>
<!DOCTYPE svg PUBLIC "-//W3C//DTD SVG 1.1//EN" "http://www.w3.org/Graphics/SVG/1.1/DTD/svg11.dtd" >
<svg xmlns="http://www.w3.org/2000/svg">
<metadata>Generated by IcoMoon</metadata>
<defs>
<font id="fitness" horiz-adv-x="1024">
<font-face units-per-em="1024" ascent="960" descent="-64" />
<missing-glyph horiz-adv-x="1024" />
<glyph unicode="&#x20;" horiz-adv-x="512" d="" />
<glyph unicode="&#xe900;" glyph-name="calendar" horiz-adv-x="951" d="M73.143 0h164.571v164.571h-164.571v-164.571zM274.286 0h182.857v164.571h-182.857v-164.571zM73.143 201.143h164.571v182.857h-164.571v-182.857zM274.286 201.143h182.857v182.857h-182.857v-182.857zM73.143 420.571h164.571v164.571h-164.571v-164.571zM493.714 0h182.857v164.571h-182.857v-164.571zM274.286 420.571h182.857v164.571h-182.857v-164.571zM713.143 0h164.571v164.571h-164.571v-164.571zM493.714 201.143h182.857v182.857h-182.857v-182.857zM292.571 694.857v164.571c0 9.714-8.571 18.286-18.286 18.286h-36.571c-9.714 0-18.286-8.571-18.286-18.286v-164.571c0-9.714 8.571-18.286 18.286-18.286h36.571c9.714 0 18.286 8.571 18.286 18.286zM713.143 201.143h164.571v182.857h-164.571v-182.857zM493.714 420.571h182.857v164.571h-182.857v-164.571zM713.143 420.571h164.571v164.571h-164.571v-164.571zM731.429 694.857v164.571c0 9.714-8.571 18.286-18.286 18.286h-36.571c-9.714 0-18.286-8.571-18.286-18.286v-164.571c0-9.714 8.571-18.286 18.286-18.286h36.571c9.714 0 18.286 8.571 18.286 18.286zM950.857 731.428v-731.429c0-40-33.143-73.143-73.143-73.143h-804.571c-40 0-73.143 33.143-73.143 73.143v731.429c0 40 33.143 73.143 73.143 73.143h73.143v54.857c0 50.286 41.143 91.429 91.429 91.429h36.571c50.286 0 91.429-41.143 91.429-91.429v-54.857h219.429v54.857c0 50.286 41.143 91.429 91.429 91.429h36.571c50.286 0 91.429-41.143 91.429-91.429v-54.857h73.143c40 0 73.143-33.143 73.143-73.143z" />
<glyph unicode="&#xe901;" glyph-name="home" horiz-adv-x="951" d="M804.571 384v-274.286c0-20-16.571-36.571-36.571-36.571h-219.429v219.429h-146.286v-219.429h-219.429c-20 0-36.571 16.571-36.571 36.571v274.286c0 1.143 0.571 2.286 0.571 3.429l328.571 270.857 328.571-270.857c0.571-1.143 0.571-2.286 0.571-3.429zM932 423.428l-35.429-42.286c-2.857-3.429-7.429-5.714-12-6.286h-1.714c-4.571 0-8.571 1.143-12 4l-395.429 329.714-395.429-329.714c-4-2.857-8.571-4.571-13.714-4-4.571 0.571-9.143 2.857-12 6.286l-35.429 42.286c-6.286 7.429-5.143 19.429 2.286 25.714l410.857 342.286c24 20 62.857 20 86.857 0l139.429-116.571v111.429c0 10.286 8 18.286 18.286 18.286h109.714c10.286 0 18.286-8 18.286-18.286v-233.143l125.143-104c7.429-6.286 8.571-18.286 2.286-25.714z" />
<glyph unicode="&#xe902;" glyph-name="arrow-forward" d="M512 768.667l342-342-342-342-60 60 238 240h-520v84h520l-238 240z" />
<glyph unicode="&#xe903;" glyph-name="angle-right" horiz-adv-x="347" d="M340 402.286c0-4.571-2.286-9.714-5.714-13.143l-266.286-266.286c-3.429-3.429-8.571-5.714-13.143-5.714s-9.714 2.286-13.143 5.714l-28.571 28.571c-3.429 3.429-5.714 8-5.714 13.143 0 4.571 2.286 9.714 5.714 13.143l224.571 224.571-224.571 224.571c-3.429 3.429-5.714 8.571-5.714 13.143s2.286 9.714 5.714 13.143l28.571 28.571c3.429 3.429 8.571 5.714 13.143 5.714s9.714-2.286 13.143-5.714l266.286-266.286c3.429-3.429 5.714-8.571 5.714-13.143z" />
<glyph unicode="&#xe904;" glyph-name="youtube-play" d="M406.286 306.286l276.571 142.857-276.571 144.571v-287.429zM512 798.857c215.429 0 358.286-10.286 358.286-10.286 20-2.286 64-2.286 102.857-43.429 0 0 31.429-30.857 40.571-101.714 10.857-82.857 10.286-165.714 10.286-165.714v-77.714s0.571-82.857-10.286-165.714c-9.143-70.286-40.571-101.714-40.571-101.714-38.857-40.571-82.857-40.571-102.857-42.857 0 0-142.857-10.857-358.286-10.857v0c-266.286 2.286-348 10.286-348 10.286-22.857 4-74.286 2.857-113.143 43.429 0 0-31.429 31.429-40.571 101.714-10.857 82.857-10.286 165.714-10.286 165.714v77.714s-0.571 82.857 10.286 165.714c9.143 70.857 40.571 101.714 40.571 101.714 38.857 41.143 82.857 41.143 102.857 43.429 0 0 142.857 10.286 358.286 10.286v0z" />
<glyph unicode="&#xe905;" glyph-name="close" d="M810 664.667l-238-238 238-238-60-60-238 238-238-238-60 60 238 238-238 238 60 60 238-238 238 238z" />
<glyph unicode="&#xe906;" glyph-name="menu" d="M128 682.667h768v-86h-768v86zM128 384.667v84h768v-84h-768zM128 170.667v86h768v-86h-768z" />
<glyph unicode="&#xe907;" glyph-name="exclamation-triangle" d="M585.143 165.143v108.571c0 10.286-8 18.857-18.286 18.857h-109.714c-10.286 0-18.286-8.571-18.286-18.857v-108.571c0-10.286 8-18.857 18.286-18.857h109.714c10.286 0 18.286 8.571 18.286 18.857zM584 378.857l10.286 262.286c0 3.429-1.714 8-5.714 10.857-3.429 2.857-8.571 6.286-13.714 6.286h-125.714c-5.143 0-10.286-3.429-13.714-6.286-4-2.857-5.714-8.571-5.714-12l9.714-261.143c0-7.429 8.571-13.143 19.429-13.143h105.714c10.286 0 18.857 5.714 19.429 13.143zM576 912.571l438.857-804.571c12.571-22.286 12-49.714-1.143-72s-37.143-36-62.857-36h-877.714c-25.714 0-49.714 13.714-62.857 36s-13.714 49.714-1.143 72l438.857 804.571c12.571 23.429 37.143 38.286 64 38.286s51.429-14.857 64-38.286z" />
<glyph unicode="&#xe908;" glyph-name="check" d="M954.857 627.428c0-14.286-5.714-28.571-16-38.857l-491.429-491.429c-10.286-10.286-24.571-16-38.857-16s-28.571 5.714-38.857 16l-284.571 284.571c-10.286 10.286-16 24.571-16 38.857s5.714 28.571 16 38.857l77.714 77.714c10.286 10.286 24.571 16 38.857 16s28.571-5.714 38.857-16l168-168.571 374.857 375.429c10.286 10.286 24.571 16 38.857 16s28.571-5.714 38.857-16l77.714-77.714c10.286-10.286 16-24.571 16-38.857z" />
<glyph unicode="&#xe909;" glyph-name="question-circle" horiz-adv-x="878" d="M512 164.571v109.714c0 10.286-8 18.286-18.286 18.286h-109.714c-10.286 0-18.286-8-18.286-18.286v-109.714c0-10.286 8-18.286 18.286-18.286h109.714c10.286 0 18.286 8 18.286 18.286zM658.286 548.571c0 104.571-109.714 182.857-208 182.857-93.143 0-162.857-40-212-121.714-5.143-8-2.857-18.286 4.571-24l75.429-57.143c2.857-2.286 6.857-3.429 10.857-3.429 5.143 0 10.857 2.286 14.286 6.857 26.857 34.286 38.286 44.571 49.143 52.571 9.714 6.857 28.571 13.714 49.143 13.714 36.571 0 70.286-23.429 70.286-48.571 0-29.714-15.429-44.571-50.286-60.571-40.571-18.286-96-65.714-96-121.143v-20.571c0-10.286 8-18.286 18.286-18.286h109.714c10.286 0 18.286 8 18.286 18.286v0c0 13.143 16.571 41.143 43.429 56.571 43.429 24.571 102.857 57.714 102.857 144.571zM877.714 438.857c0-242.286-196.571-438.857-438.857-438.857s-438.857 196.571-438.857 438.857 196.571 438.857 438.857 438.857 438.857-196.571 438.857-438.857z" />
<glyph unicode="&#xe90a;" glyph-name="share" d="M1024 585.143c0-9.714-4-18.857-10.857-25.714l-292.571-292.571c-6.857-6.857-16-10.857-25.714-10.857-20 0-36.571 16.571-36.571 36.571v146.286h-128c-246.286 0-408-47.429-408-320 0-23.429 1.143-46.857 2.857-70.286 0.571-9.143 2.857-19.429 2.857-28.571 0-10.857-6.857-20-18.286-20-8 0-12 4-16 9.714-8.571 12-14.857 30.286-21.143 43.429-32.571 73.143-72.571 177.714-72.571 257.714 0 64 6.286 129.714 30.286 190.286 79.429 197.143 312.571 230.286 500 230.286h128v146.286c0 20 16.571 36.571 36.571 36.571 9.714 0 18.857-4 25.714-10.857l292.571-292.571c6.857-6.857 10.857-16 10.857-25.714z" />
<glyph unicode="&#xe90b;" glyph-name="linkedin" horiz-adv-x="878" d="M199.429 593.714v-566.286h-188.571v566.286h188.571zM211.429 768.571c0.571-54.286-40.571-97.714-106.286-97.714v0h-1.143c-63.429 0-104 43.429-104 97.714 0 55.429 42.286 97.714 106.286 97.714 64.571 0 104.571-42.286 105.143-97.714zM877.714 352v-324.571h-188v302.857c0 76-27.429 128-95.429 128-52 0-82.857-34.857-96.571-68.571-4.571-12.571-6.286-29.143-6.286-46.286v-316h-188c2.286 513.143 0 566.286 0 566.286h188v-82.286h-1.143c24.571 38.857 69.143 95.429 170.857 95.429 124 0 216.571-81.143 216.571-254.857z" />
<glyph unicode="&#xe90c;" glyph-name="twitter" horiz-adv-x="951" d="M925.714 717.714c-25.143-36.571-56.571-69.143-92.571-95.429 0.571-8 0.571-16 0.571-24 0-244-185.714-525.143-525.143-525.143-104.571 0-201.714 30.286-283.429 82.857 14.857-1.714 29.143-2.286 44.571-2.286 86.286 0 165.714 29.143 229.143 78.857-81.143 1.714-149.143 54.857-172.571 128 11.429-1.714 22.857-2.857 34.857-2.857 16.571 0 33.143 2.286 48.571 6.286-84.571 17.143-148 91.429-148 181.143v2.286c24.571-13.714 53.143-22.286 83.429-23.429-49.714 33.143-82.286 89.714-82.286 153.714 0 34.286 9.143 65.714 25.143 93.143 90.857-112 227.429-185.143 380.571-193.143-2.857 13.714-4.571 28-4.571 42.286 0 101.714 82.286 184.571 184.571 184.571 53.143 0 101.143-22.286 134.857-58.286 41.714 8 81.714 23.429 117.143 44.571-13.714-42.857-42.857-78.857-81.143-101.714 37.143 4 73.143 14.286 106.286 28.571z" />
<glyph unicode="&#xe90d;" glyph-name="facebook" horiz-adv-x="602" d="M548 944v-150.857h-89.714c-70.286 0-83.429-33.714-83.429-82.286v-108h167.429l-22.286-169.143h-145.143v-433.714h-174.857v433.714h-145.714v169.143h145.714v124.571c0 144.571 88.571 223.429 217.714 223.429 61.714 0 114.857-4.571 130.286-6.857z" />
<glyph unicode="&#xe90e;" glyph-name="mobile" horiz-adv-x="439" d="M265.143 146.286c0 25.143-20.571 45.714-45.714 45.714s-45.714-20.571-45.714-45.714 20.571-45.714 45.714-45.714 45.714 20.571 45.714 45.714zM384 237.714v402.286c0 9.714-8.571 18.286-18.286 18.286h-292.571c-9.714 0-18.286-8.571-18.286-18.286v-402.286c0-9.714 8.571-18.286 18.286-18.286h292.571c9.714 0 18.286 8.571 18.286 18.286zM274.286 722.286c0 5.143-4 9.143-9.143 9.143h-91.429c-5.143 0-9.143-4-9.143-9.143s4-9.143 9.143-9.143h91.429c5.143 0 9.143 4 9.143 9.143zM438.857 731.428v-585.143c0-40-33.143-73.143-73.143-73.143h-292.571c-40 0-73.143 33.143-73.143 73.143v585.143c0 40 33.143 73.143 73.143 73.143h292.571c40 0 73.143-33.143 73.143-73.143z" />
<glyph unicode="&#xe90f;" glyph-name="building-o" horiz-adv-x="805" d="M219.429 201.143v-36.571c0-9.714-8.571-18.286-18.286-18.286h-36.571c-9.714 0-18.286 8.571-18.286 18.286v36.571c0 9.714 8.571 18.286 18.286 18.286h36.571c9.714 0 18.286-8.571 18.286-18.286zM219.429 347.428v-36.571c0-9.714-8.571-18.286-18.286-18.286h-36.571c-9.714 0-18.286 8.571-18.286 18.286v36.571c0 9.714 8.571 18.286 18.286 18.286h36.571c9.714 0 18.286-8.571 18.286-18.286zM365.714 347.428v-36.571c0-9.714-8.571-18.286-18.286-18.286h-36.571c-9.714 0-18.286 8.571-18.286 18.286v36.571c0 9.714 8.571 18.286 18.286 18.286h36.571c9.714 0 18.286-8.571 18.286-18.286zM219.429 493.714v-36.571c0-9.714-8.571-18.286-18.286-18.286h-36.571c-9.714 0-18.286 8.571-18.286 18.286v36.571c0 9.714 8.571 18.286 18.286 18.286h36.571c9.714 0 18.286-8.571 18.286-18.286zM658.286 201.143v-36.571c0-9.714-8.571-18.286-18.286-18.286h-36.571c-9.714 0-18.286 8.571-18.286 18.286v36.571c0 9.714 8.571 18.286 18.286 18.286h36.571c9.714 0 18.286-8.571 18.286-18.286zM512 347.428v-36.571c0-9.714-8.571-18.286-18.286-18.286h-36.571c-9.714 0-18.286 8.571-18.286 18.286v36.571c0 9.714 8.571 18.286 18.286 18.286h36.571c9.714 0 18.286-8.571 18.286-18.286zM365.714 493.714v-36.571c0-9.714-8.571-18.286-18.286-18.286h-36.571c-9.714 0-18.286 8.571-18.286 18.286v36.571c0 9.714 8.571 18.286 18.286 18.286h36.571c9.714 0 18.286-8.571 18.286-18.286zM219.429 640v-36.571c0-9.714-8.571-18.286-18.286-18.286h-36.571c-9.714 0-18.286 8.571-18.286 18.286v36.571c0 9.714 8.571 18.286 18.286 18.286h36.571c9.714 0 18.286-8.571 18.286-18.286zM658.286 347.428v-36.571c0-9.714-8.571-18.286-18.286-18.286h-36.571c-9.714 0-18.286 8.571-18.286 18.286v36.571c0 9.714 8.571 18.286 18.286 18.286h36.571c9.714 0 18.286-8.571 18.286-18.286zM512 493.714v-36.571c0-9.714-8.571-18.286-18.286-18.286h-36.571c-9.714 0-18.286 8.571-18.286 18.286v36.571c0 9.714 8.571 18.286 18.286 18.286h36.571c9.714 0 18.286-8.571 18.286-18.286zM365.714 640v-36.571c0-9.714-8.571-18.286-18.286-18.286h-36.571c-9.714 0-18.286 8.571-18.286 18.286v36.571c0 9.714 8.571 18.286 18.286 18.286h36.571c9.714 0 18.286-8.571 18.286-18.286zM219.429 786.286v-36.571c0-9.714-8.571-18.286-18.286-18.286h-36.571c-9.714 0-18.286 8.571-18.286 18.286v36.571c0 9.714 8.571 18.286 18.286 18.286h36.571c9.714 0 18.286-8.571 18.286-18.286zM658.286 493.714v-36.571c0-9.714-8.571-18.286-18.286-18.286h-36.571c-9.714 0-18.286 8.571-18.286 18.286v36.571c0 9.714 8.571 18.286 18.286 18.286h36.571c9.714 0 18.286-8.571 18.286-18.286zM512 640v-36.571c0-9.714-8.571-18.286-18.286-18.286h-36.571c-9.714 0-18.286 8.571-18.286 18.286v36.571c0 9.714 8.571 18.286 18.286 18.286h36.571c9.714 0 18.286-8.571 18.286-18.286zM365.714 786.286v-36.571c0-9.714-8.571-18.286-18.286-18.286h-36.571c-9.714 0-18.286 8.571-18.286 18.286v36.571c0 9.714 8.571 18.286 18.286 18.286h36.571c9.714 0 18.286-8.571 18.286-18.286zM658.286 640v-36.571c0-9.714-8.571-18.286-18.286-18.286h-36.571c-9.714 0-18.286 8.571-18.286 18.286v36.571c0 9.714 8.571 18.286 18.286 18.286h36.571c9.714 0 18.286-8.571 18.286-18.286zM512 786.286v-36.571c0-9.714-8.571-18.286-18.286-18.286h-36.571c-9.714 0-18.286 8.571-18.286 18.286v36.571c0 9.714 8.571 18.286 18.286 18.286h36.571c9.714 0 18.286-8.571 18.286-18.286zM658.286 786.286v-36.571c0-9.714-8.571-18.286-18.286-18.286h-36.571c-9.714 0-18.286 8.571-18.286 18.286v36.571c0 9.714 8.571 18.286 18.286 18.286h36.571c9.714 0 18.286-8.571 18.286-18.286zM512 0h219.429v877.714h-658.286v-877.714h219.429v128c0 9.714 8.571 18.286 18.286 18.286h182.857c9.714 0 18.286-8.571 18.286-18.286v-128zM804.571 914.286v-950.857c0-20-16.571-36.571-36.571-36.571h-731.429c-20 0-36.571 16.571-36.571 36.571v950.857c0 20 16.571 36.571 36.571 36.571h731.429c20 0 36.571-16.571 36.571-36.571z" />
<glyph unicode="&#xe910;" glyph-name="play" d="M1012.87 439.924c0-276.622-224.247-500.87-500.87-500.87s-500.87 224.247-500.87 500.87c0 276.622 224.247 500.87 500.87 500.87s500.87-224.247 500.87-500.87zM66.226 439.924c0-246.194 199.58-445.774 445.774-445.774s445.774 199.58 445.774 445.774c0 246.194-199.58 445.774-445.774 445.774s-445.774-199.58-445.774-445.774zM653.63 443.399l-207.255-119.659v239.318l207.255-119.659z" />
<glyph unicode="&#xe911;" glyph-name="play-2" d="M689.231 440.277l-354.462-204.65v409.297l354.462-204.646z" />
<glyph unicode="&#xe912;" glyph-name="scale" d="M923.093 831.147c-6.827 28.16-29.013 50.347-56.32 58.88-117.76 34.987-237.227 52.907-354.987 52.907s-237.227-17.92-354.987-52.907c-28.16-8.533-49.493-30.72-56.32-58.88-65.707-254.293-65.707-512 0-766.293 6.827-28.16 29.013-50.347 56.32-58.88 117.76-34.987 237.227-52.907 354.987-52.907s237.227 17.92 354.987 52.907c28.16 8.533 49.493 30.72 56.32 58.88 65.707 254.293 65.707 512 0 766.293zM873.6 77.653c-2.56-11.093-11.093-19.627-21.333-22.187-112.64-33.28-227.84-50.347-340.48-50.347s-227.84 17.067-340.48 50.347c-10.24 3.413-18.773 11.947-21.333 22.187-63.147 245.76-63.147 494.933 0 740.693 2.56 11.093 11.093 19.627 21.333 22.187 112.64 33.28 227.84 50.347 340.48 50.347s227.84-17.067 340.48-50.347c10.24-3.413 18.773-11.947 21.333-22.187 63.147-245.76 63.147-494.933 0-740.693zM650.88 833.707h-279.893c-33.28 0-60.587-27.307-60.587-60.587v-104.96c0-33.28 27.307-60.587 60.587-60.587h279.893c33.28 0 60.587 27.307 60.587 60.587v104.96c0 33.28-27.307 60.587-60.587 60.587zM660.267 668.16c0-5.12-4.267-9.387-9.387-9.387h-279.893c-5.12 0-9.387 4.267-9.387 9.387v104.96c0 5.12 4.267 9.387 9.387 9.387h122.027l17.92-61.44 17.92 61.44h122.027c5.12 0 9.387-4.267 9.387-9.387v-104.96zM316.373 407.040c14.139 0 25.6 11.461 25.6 25.6s-11.461 25.6-25.6 25.6c-14.139 0-25.6-11.461-25.6-25.6s11.461-25.6 25.6-25.6zM446.080 407.040c14.138 0 25.6 11.461 25.6 25.6s-11.462 25.6-25.6 25.6c-14.139 0-25.6-11.461-25.6-25.6s11.461-25.6 25.6-25.6zM575.787 407.040c14.138 0 25.6 11.461 25.6 25.6s-11.462 25.6-25.6 25.6c-14.139 0-25.6-11.461-25.6-25.6s11.461-25.6 25.6-25.6zM706.347 407.040c14.138 0 25.6 11.461 25.6 25.6s-11.462 25.6-25.6 25.6c-14.139 0-25.6-11.461-25.6-25.6s11.461-25.6 25.6-25.6zM316.373 267.947c14.139 0 25.6 11.462 25.6 25.6s-11.461 25.6-25.6 25.6c-14.139 0-25.6-11.461-25.6-25.6s11.461-25.6 25.6-25.6zM446.080 267.947c14.138 0 25.6 11.462 25.6 25.6s-11.462 25.6-25.6 25.6c-14.139 0-25.6-11.461-25.6-25.6s11.461-25.6 25.6-25.6zM575.787 267.947c14.138 0 25.6 11.462 25.6 25.6s-11.462 25.6-25.6 25.6c-14.139 0-25.6-11.461-25.6-25.6s11.461-25.6 25.6-25.6zM706.347 267.947c14.138 0 25.6 11.462 25.6 25.6s-11.462 25.6-25.6 25.6c-14.139 0-25.6-11.461-25.6-25.6s11.461-25.6 25.6-25.6zM316.373 128.853c14.139 0 25.6 11.461 25.6 25.6s-11.461 25.6-25.6 25.6c-14.139 0-25.6-11.462-25.6-25.6s11.461-25.6 25.6-25.6zM446.080 128.853c14.138 0 25.6 11.461 25.6 25.6s-11.462 25.6-25.6 25.6c-14.139 0-25.6-11.462-25.6-25.6s11.461-25.6 25.6-25.6zM575.787 128.853c14.138 0 25.6 11.461 25.6 25.6s-11.462 25.6-25.6 25.6c-14.139 0-25.6-11.462-25.6-25.6s11.461-25.6 25.6-25.6zM706.347 128.853c14.138 0 25.6 11.461 25.6 25.6s-11.462 25.6-25.6 25.6c-14.139 0-25.6-11.462-25.6-25.6s11.461-25.6 25.6-25.6z" />
<glyph unicode="&#xe913;" glyph-name="separator" d="M534.324 483.982c-12.329 12.329-32.319 12.329-44.648 0l-104.039-104.038c-24.659-24.659-64.638-24.659-89.297 0l-104.038 104.038c-12.33 12.329-32.32 12.329-44.649 0l-120.704-120.704c-6.165-6.165-16.16-6.165-22.324 0s-6.165 16.16 0 22.324l120.705 120.704c24.659 24.659 64.638 24.659 89.297 0l104.038-104.038c12.33-12.33 32.319-12.33 44.649 0l104.038 104.038c24.659 24.659 64.639 24.659 89.298 0l104.038-104.038c12.33-12.33 32.319-12.33 44.649 0l104.038 104.038c24.659 24.659 64.635 24.659 89.296 0l120.704-120.704c6.17-6.164 6.17-16.16 0-22.324-6.161-6.165-16.162-6.165-22.323 0l-120.704 120.704c-12.331 12.329-32.319 12.329-44.649 0l-104.038-104.038c-24.659-24.659-64.638-24.659-89.297 0l-104.039 104.038z" />
<glyph unicode="&#xe914;" glyph-name="waisttrim" d="M201.211 869.545c15.369-154.277 19.090-253.654 14.508-332.959l34.308-12.64c-5.973-17.067-12.799-33.28-20.479-51.2l-5.974-16.213-15.075 6.192c-3.286-23.542-7.391-46.119-12.185-69.070l3.367-1.122c-1.404-3.976-2.679-7.759-3.86-11.403 207.674-30.308 417.020-30.307 624.694 0.003-1.185 3.504-2.465 7.025-3.874 10.547l3.534 1.178c-4.831 23.059-8.968 45.726-12.279 69.356l-15.147-5.68-5.974 14.507c-4.551 11.946-9.102 23.134-13.652 34.321-2.276 5.594-4.552 11.19-6.828 16.879l34.406 12.676c-4.734 79.626-1.062 179.384 14.437 334.903l-45.43 15.94c6.302 18.904 12.138 31.759 14.759 37.534v0.001c0.929 2.045 1.454 3.202 1.454 3.425l33.419-16.090c0.236 2.224 0.474 4.458 0.714 6.704l51.2-5.12c-34.133-318.293-23.893-410.453 7.68-546.133 23.893-102.4 36.693-229.547-46.080-400.213l-46.080 23.040c47.787 97.28 61.44 178.347 58.88 249.173-63.147-25.6-203.093-89.6-311.467-187.733v-72.533h-51.2v72.533c-108.373 98.133-248.32 162.133-311.467 187.733-2.56-70.827 11.093-151.893 58.88-249.173l-46.080-23.040c-83.627 169.813-70.827 297.813-46.933 400.213 30.72 135.68 40.96 227.84 7.68 546.133l51.2 5.12c0.241-2.245 0.479-4.48 0.714-6.704l33.419 16.091c0-0.223 0.526-1.38 1.454-3.425v0c2.621-5.775 8.458-18.63 14.76-37.535l-45.403-16.215zM735.573 668.16c0.853-25.6 4.267-50.347 9.387-74.24l50.347 11.093c-4.267 21.333-7.68 43.52-8.533 65.707l-51.2-2.56zM737.281 742.4l51.2-5.12c2.56 22.187 5.972 44.373 11.092 66.56l-50.347 11.093c-5.973-23.893-9.386-48.64-11.946-72.533zM271.36 593.92l-50.346 11.093c4.267 21.333 7.68 43.52 8.533 65.707l51.2-2.56c-0.853-25.6-4.268-50.347-9.388-74.24zM227.84 737.28c-1.707 22.187-5.972 44.373-11.092 66.56l50.346 11.093c5.12-24.747 9.387-48.64 11.947-72.533l-51.2-5.12zM508.587 420.693c14.139 0 25.6 11.461 25.6 25.6s-11.461 25.6-25.6 25.6c-14.138 0-25.6-11.462-25.6-25.6s11.462-25.6 25.6-25.6zM176.64 291.84c55.467-21.333 208.213-87.040 331.947-195.413 122.88 108.373 276.48 174.080 331.947 195.413-1.707 12.8-4.267 26.453-6.827 39.253-107.52-16.213-216.747-23.893-325.12-23.893s-216.747 7.68-325.12 23.893c-2.56-12.8-5.12-25.6-6.827-39.253z" />
<glyph unicode="&#xe915;" glyph-name="waisttrim2" d="M837.12 489.813c-11.947 29.013-23.040 56.32-30.72 82.773-50.347 163.84 28.16 329.387 29.013 331.093l-46.080 22.187c-3.413-7.68-88.747-185.173-31.573-368.64 8.533-28.16 20.48-56.32 32.427-86.187 11.947-29.013 23.893-58.027 34.133-89.6-207.36-29.867-417.28-29.867-624.64 0 10.24 31.573 22.187 60.587 34.133 89.6 11.947 29.867 23.893 58.027 32.427 86.187 57.173 183.467-28.16 360.96-31.573 368.64l-46.080-22.187c0.853-1.707 79.36-167.253 29.013-331.093-8.533-26.453-18.773-53.76-30.72-82.773-51.2-127.147-115.2-285.013 2.56-524.8l46.080 23.040c-47.787 97.28-63.147 178.347-60.587 250.027 62.293-25.6 203.093-89.6 313.173-188.587v-72.533h51.2v72.533c109.227 98.987 250.88 162.987 313.173 188.587 1.707-71.68-13.653-152.747-60.587-250.027l46.080-23.040c114.347 239.787 50.347 397.653-0.853 524.8zM511.147 95.573c-124.587 109.227-279.893 174.933-333.653 196.267 1.707 13.653 4.267 26.453 7.68 39.253 108.373-16.213 217.6-23.893 325.973-23.893 109.227 0 217.6 7.68 325.973 23.893 2.56-12.8 5.12-25.6 7.68-39.253-53.76-21.333-209.067-87.040-333.653-196.267zM511.147 419.84c14.139 0 25.6 11.461 25.6 25.6s-11.461 25.6-25.6 25.6c-14.138 0-25.6-11.462-25.6-25.6s11.462-25.6 25.6-25.6zM979.627 691.2h-78.507l25.6 25.6-36.693 36.693-87.893-87.893 87.893-87.893 36.693 36.693-25.6 25.6h78.507v51.2zM95.573 716.8l25.6-25.6h-78.507v-51.2h78.507l-25.6-25.6 36.693-36.693 87.893 87.893-87.893 87.893-36.693-36.693z" />
<glyph unicode="&#xe916;" glyph-name="watch" d="M512.853 320c-41.813 0-52.907 54.613-66.56 123.733-4.267 19.627-10.24 49.493-16.213 68.267-5.973-18.773-11.947-47.787-16.213-68.267-13.653-69.12-24.747-123.733-66.56-123.733-38.4 0-50.347 51.2-57.173 78.507-3.413 14.507-16.213 24.747-31.573 24.747h-2.56v51.2h2.56c39.253 0 72.533-26.453 81.067-64 2.56-11.093 5.12-18.773 6.827-24.747 5.973 18.773 11.947 47.787 16.213 68.267 13.653 69.12 24.747 123.733 66.56 123.733s52.907-54.613 66.56-123.733c4.267-19.627 10.24-49.493 16.213-68.267 5.973 18.773 11.947 47.787 16.213 68.267 13.653 69.12 24.747 123.733 66.56 123.733 38.4 0 50.347-51.2 57.173-78.507 3.413-14.507 16.213-24.747 31.573-24.747v-51.2c-39.253 0-72.533 26.453-81.067 64-2.56 11.093-5.12 18.773-6.827 24.747-5.973-18.773-11.947-47.787-16.213-68.267-13.653-69.12-24.747-123.733-66.56-123.733zM806.4 542.72h-25.6v137.387c0 35.84-24.747 65.707-58.027 74.24l-31.573 129.707c-8.533 34.987-39.253 58.88-75.093 58.88h-289.28c-35.84 0-66.56-23.893-75.093-58.88l-31.573-128.853c-33.28-8.533-58.027-39.253-58.027-74.24v-463.36c0-34.987 23.893-64.853 56.32-74.24l33.28-134.827c8.533-34.987 39.253-58.88 75.093-58.88h289.28c35.84 0 66.56 23.893 75.093 58.88l33.28 134.827c32.427 9.387 56.32 39.253 56.32 74.24v136.533h25.6c31.573 0 56.32 25.6 56.32 56.32v75.947c0 31.573-24.747 56.32-56.32 56.32zM326.827 891.733h289.28c11.947 0 22.187-7.68 24.747-19.627l28.16-114.347h-395.093l28.16 114.347c2.56 11.093 12.8 19.627 24.747 19.627zM616.107 0.853h-289.28c-11.947 0-22.187 7.68-24.747 19.627l-29.013 119.467h397.653l-29.013-119.467c-3.413-11.947-13.653-19.627-25.6-19.627zM728.747 216.747c0-14.507-11.947-25.6-25.6-25.6h-463.36c-14.507 0-25.6 11.947-25.6 25.6v463.36c0 14.507 11.947 25.6 25.6 25.6h463.36c14.507 0 25.6-11.947 25.6-25.6v-463.36zM811.52 410.453c0-2.56-2.56-5.12-5.12-5.12h-25.6v86.187h25.6c2.56 0 5.12-2.56 5.12-5.12v-75.947zM470.187 797.013c14.139 0 25.6 11.461 25.6 25.6s-11.461 25.6-25.6 25.6c-14.138 0-25.6-11.461-25.6-25.6s11.462-25.6 25.6-25.6z" />
<glyph unicode="&#xe917;" glyph-name="weight" d="M985.813 628.907l-36.693-36.693c-5.973-6.827-13.653-11.947-21.333-15.36l21.333-21.333c15.36-14.507 23.040-34.133 23.040-54.613s-8.533-40.107-23.040-54.613l-36.693-36.693c-14.507-15.36-34.133-23.040-54.613-23.040s-40.107 8.533-54.613 23.040l-109.653 109.653-253.013-253.013 109.227-109.227c15.36-14.507 23.040-34.133 23.040-54.613s-8.533-40.107-23.040-54.613l-36.693-36.693c-14.507-15.36-34.133-23.040-54.613-23.040s-40.107 8.533-54.613 23.040l-21.333 21.333c-4.267-7.68-9.387-15.36-15.36-21.333l-36.693-36.693c-14.507-15.36-34.133-23.040-54.613-23.040s-40.107 8.533-54.613 23.040l-36.693 36.693-17.067-17.067c-14.507-15.36-34.133-23.040-54.613-23.040s-40.107 7.68-54.613 23.040c-29.867 29.867-29.867 79.36 0 109.227l17.066 17.067-35.84 35.84c-29.867 29.867-29.867 79.36 0 109.227l36.693 36.693c5.973 6.827 13.653 11.947 21.333 15.36l-21.333 21.333c-15.36 14.507-23.040 34.133-23.040 54.613s8.533 40.107 23.040 54.613l36.693 36.693c14.507 15.36 34.133 23.040 54.613 23.040s40.107-8.533 54.613-23.040l109.227-109.227 253.013 253.013-108.8 108.8c-15.36 14.507-23.040 34.133-23.040 54.613s8.533 40.107 23.040 54.613l36.693 36.693c14.507 15.36 34.133 23.040 54.613 23.040s40.107-8.533 54.613-23.040l21.333-21.333c4.267 7.68 9.387 15.36 15.36 21.333l36.693 36.694c14.507 15.36 34.133 23.040 54.613 23.040s40.107-8.533 54.613-23.040l35.84-35.84 17.92 17.92c14.507 14.507 34.133 23.040 54.613 23.040s40.107-7.68 54.613-23.040c29.867-29.867 29.867-79.36 0-109.227l-17.92-17.92 36.693-36.693c15.36-14.507 23.040-34.133 23.040-54.613s-8.533-40.107-23.040-54.613zM657.28 555.52l-36.693 36.693-253.013-253.013 36.693-36.693 253.013 253.013zM730.24 555.947l108.8-108.8c10.24-9.387 27.307-9.387 36.693 0l36.693 36.693c10.24 9.387 10.24 26.453-1.707 37.547l-326.827 326.827c-4.267 5.12-11.093 7.68-17.92 7.68s-12.8-2.56-17.92-7.68l-36.693-36.693c-10.24-10.24-10.24-26.453 0-36.693l109.653-109.653 0.427 0.427 109.227-109.227-0.427-0.427zM948.267 702.293l-181.76 181.76c-4.267 5.12-11.093 7.68-17.92 7.68s-12.8-2.56-17.92-7.68l-36.693-36.693c-5.12-4.267-7.68-11.093-7.68-17.92s2.56-12.8 7.68-17.92l180.907-181.76c10.24-9.387 27.307-9.387 36.693 0l36.693 36.693c5.12 4.267 7.68 11.093 7.68 17.92s-2.56 12.8-7.68 17.92zM876.587 848.213l36.693-36.693 17.92 17.92c10.24 10.24 10.24 26.453 0 36.693-9.387 9.387-26.453 9.387-36.693 0l-17.92-17.92zM221.313 47.872l36.607-36.779c10.24-9.387 27.307-9.387 36.693 0l36.693 36.693c5.12 4.267 7.68 11.093 7.68 17.92s-3.413 13.653-8.533 18.773l-181.76 181.76c-4.267 5.12-11.093 7.68-17.92 7.68s-12.8-2.56-17.92-7.68l-36.693-36.693c-5.12-4.267-7.68-11.093-7.68-17.92s2.56-12.8 7.68-17.92l36.182-36.352 0.511 0.512 109.227-109.227-0.767-0.768zM112 83.627l-17.92-17.92c-5.12-5.12-7.68-11.093-7.68-17.92s2.56-13.653 7.68-17.92c9.387-9.387 26.453-9.387 36.693 0l17.493 17.493-36.267 36.267zM476.373 46.933l36.693 36.693c10.24 10.24 10.24 26.453 0 35.84l-327.68 327.68c-4.267 5.12-11.093 7.68-17.92 7.68s-12.8-2.56-17.92-7.68l-36.693-36.693c-10.24-10.24-10.24-26.453 0-36.693l326.827-326.827c10.24-9.387 27.307-9.387 36.693 0z" />
<glyph unicode="&#xe918;" glyph-name="apple" d="M790.187 680.107c4.267 3.413 7.68 6.827 11.947 11.093 58.88 58.88 81.92 145.067 60.587 226.133l-3.413 14.507-14.507 3.413c-19.627 5.12-40.107 7.68-60.587 7.68-62.293 0-121.173-23.893-165.547-68.267-22.187-22.187-39.253-48.64-51.2-77.653-28.16 43.52-70.827 75.093-121.173 88.747l-13.653-49.493c40.96-11.093 75.093-37.547 96.427-74.24 17.067-29.013 23.893-62.293 20.48-95.573-30.72 0.853-62.293 4.267-93.013 10.24-19.627 3.413-40.107 5.12-61.44 5.12-155.307 0-256-108.373-256-275.627 0-23.040 1.707-46.933 4.267-69.973l51.2 6.827c-2.56 20.48-4.267 41.813-4.267 63.147 0 108.373 53.76 224.427 204.8 224.427 18.773 0 35.84-1.707 52.053-4.267 82.773-16.213 167.253-16.213 250.88 0 16.213 3.413 33.28 4.267 52.053 4.267 151.040 0 204.8-116.053 204.8-224.427 0-240.64-172.373-388.267-267.093-388.267-15.36 0-30.72 2.56-45.227 7.68-45.227 16.213-94.72 16.213-139.947 0-14.507-5.12-29.867-7.68-45.227-7.68-49.493 0-114.347 39.253-164.693 99.84l-39.253-33.28c61.44-73.387 139.093-118.613 203.947-118.613 21.333 0 41.813 3.413 62.293 10.24 34.133 11.947 71.68 11.947 105.813 0 19.627-6.827 40.96-10.24 62.293-10.24 127.147 0 318.293 175.787 318.293 439.467-0.853 154.453-84.48 257.707-215.893 274.773zM654.507 838.827c34.133 34.133 80.213 53.76 128.853 53.76 11.093 0 22.187-0.853 32.427-2.56 10.24-58.88-8.533-119.467-50.347-161.28-34.133-34.133-80.213-53.76-128.853-53.76-11.093 0-22.187 0.853-32.427 2.56-10.24 58.027 8.533 118.613 50.347 161.28zM99.84 365.227c-17.92 0-32.427 14.507-32.427 32.427s14.507 32.427 32.427 32.427h39.253c0.853 17.92 3.413 34.987 6.827 51.2h-45.227c-46.080 0-83.627-37.547-83.627-83.627v-235.52c0-46.080 37.547-83.627 83.627-83.627h497.493v286.72h-498.347zM546.133 129.707h-446.293c-17.92 0-32.427 14.507-32.427 32.427v157.867c10.24-4.267 21.333-6.827 32.427-6.827h38.4v-53.76h51.2v53.76h86.187v-53.76h51.2v53.76h86.187v-53.76h51.2v53.76h81.067v-183.467h0.853z" />
<glyph unicode="&#xe919;" glyph-name="fruit" d="M335.36-40.73c2.783-0.154 5.628-0.23 8.533-0.23 27.89 0 61.566 6.946 98.371 19.055 19.828 0.93 39.604-2.466 58.643-8.815 19.627-6.827 40.96-10.24 62.293-10.24 102.314 0 244.667 112.452 297.677 294.793 26.377 36.566 38.775 75.371 36.83 115.66-1.331 26.437-8.687 50.534-18.551 71.507l1.485 0.173-0.853 5.12c-3.021 23.828-8.192 46.059-15.377 66.56h87.91v51.2h-62.191l25.6 25.6h88.644v51.2h-37.444l23.902 23.899-36.198 36.204-24.499-24.495v37.779h-51.2v-88.979l-25.6-25.6v62.525h-51.2v-51.453c-35.111 32.886-80.529 53.818-133.973 60.839 4.267 3.413 8.533 6.827 11.947 11.093 58.88 58.88 81.92 145.067 60.587 226.133l-3.413 14.507-14.507 3.413c-19.627 5.12-40.107 7.68-60.587 7.68-62.293 0-121.173-23.893-165.547-68.267-22.187-22.187-39.253-48.64-51.2-77.653-28.16 43.52-70.827 75.093-121.173 88.747l-13.653-49.494c40.96-11.093 75.093-37.547 96.427-74.24 17.067-29.013 23.893-62.293 20.48-95.573-30.72 0.853-62.293 4.267-93.013 10.24-19.627 3.413-40.107 5.12-61.44 5.12-155.307 0-256-108.373-256-275.627 0-264.533 192-439.467 318.293-439.467v1.084zM66.56 398.507c0 108.373 53.76 224.427 204.8 224.427 18.773 0 35.84-1.707 52.053-4.267 82.773-16.213 167.253-16.213 250.88 0 16.213 3.413 33.28 4.267 52.053 4.267 74.657 0 121.887-27.428 151.846-62.309-29.59 23.2-74.425 48.655-127.952 48.655-49.493 0-97.28-22.187-140.8-65.707-69.973-70.827-150.187-186.027-202.24-294.4-32.532-67.567-64.147-150.272-57.854-210.449-88.225 54.34-182.786 181.55-182.786 359.782zM434.465 29.022c-0.040 0-0.079-0.009-0.119-0.009l0.002-0.026c-34.766-11.964-65.623-18.748-89.602-18.748-11.947 0-27.307 1.707-34.987 9.387-24.133 24.132-4.151 103.755 39.177 196.101l52.877-52.877 36.204 36.204-64.922 64.923c18.938 35.651 40.637 72.059 64.017 106.993l67.24-67.24 36.204 36.204-73.574 73.574c25.228 34.199 51.75 65.875 78.399 92.619l61.506-61.506 36.204 36.204-57.45 57.45c21.084 12.57 42.682 18.953 64.6 18.953 70.827 0 126.293-65.707 127.147-67.413l3.413-3.413c0.853 0 63.147-52.053 66.56-120.32 1.707-37.547-15.36-75.093-50.347-110.080-8.137-8.137-16.745-16.282-25.755-24.398l-62.903 62.903-36.204-36.204 59.878-59.878c-31.088-24.795-65.159-48.809-100.144-70.917l-64.436 64.437-36.204-36.204 55.445-55.447c-52.994-30.362-106.054-55.373-152.227-71.27zM530.912 14.080c80.387 38.042 165.206 91.349 232.955 145.428-59.744-98.034-145.819-149.268-200.666-149.268-10.864 0-21.727 1.28-32.288 3.84zM531.627 830.293c34.133 34.133 80.213 53.76 128.853 53.76 11.093 0 22.187-0.853 32.427-2.56 10.24-58.88-8.533-119.467-50.347-161.28-34.133-34.133-80.213-53.76-128.853-53.76-11.093 0-22.187 0.853-32.427 2.56-11.093 58.027 7.68 118.613 50.347 161.28z" />
<glyph unicode="&#xe91a;" glyph-name="heartrate" d="M685.227 849.067c-64 0-124.587-22.187-173.227-62.293-48.64 40.107-109.227 62.293-173.227 62.293-75.947 0-145.92-30.72-197.973-86.187-72.114-77.13-88.47-189.744-50.76-285.013h-72.974v-51.2h99.735c10.071-15.14 21.771-29.455 35.092-42.667l305.493-305.493c14.507-14.507 34.133-23.040 54.613-23.040s40.107 7.68 54.613 23.040l308.907 308.907c12.348 12.248 23.253 25.403 32.725 39.253h99.541v51.2h-72.201c39.006 97.208 19.149 212.838-59.213 291.84-51.2 51.2-118.613 79.36-191.147 79.36zM182.041 426.667h103.826c15.36 0 28.16-10.24 31.573-24.747 0.143-0.571 0.288-1.153 0.435-1.744 6.903-27.682 19.141-76.762 56.738-76.762 41.813 0 52.907 54.613 66.56 123.733l0.413 1.985c4.234 20.335 10.017 48.108 15.8 66.282 4.97-15.62 9.94-38.921 13.927-57.613 0.805-3.773 1.569-7.357 2.286-10.654 13.653-69.12 24.747-123.733 66.56-123.733 41.451 0 52.712 53.67 67.036 121.937l0.377 1.796c3.413 19.627 9.387 48.64 15.36 67.413 2.175-5.982 4.004-12.309 5.486-17.439 0.843-2.919 1.575-5.45 2.194-7.308 12.8-46.933 52.053-63.147 81.067-63.147h130.544c-0.84-0.858-1.687-1.712-2.544-2.56l-308.907-308.907c-9.387-9.387-26.453-9.387-36.693 0l-305.493 304.64c-2.238 2.238-4.42 4.515-6.546 6.827zM879.292 477.867h-169.318c-7.68 0-25.6 2.56-31.573 25.6-9.387 36.693-21.333 77.653-56.32 77.653-41.813 0-52.907-54.613-66.56-123.733l-0.413-1.984c-4.234-20.336-10.017-48.108-15.8-66.283-4.971 15.621-9.94 38.922-13.928 57.615-0.804 3.772-1.568 7.357-2.285 10.652-13.653 69.12-24.747 123.733-66.56 123.733s-52.907-54.613-66.56-123.733l-0.412-1.981c-4.235-20.335-10.018-48.109-15.801-66.285-0.427 1.493-0.907 3.093-1.427 4.827-1.56 5.199-3.48 11.599-5.4 19.919-8.533 37.547-41.813 64-81.067 64h-139.2c-40.777 81.085-30.502 182.246 32.533 250.027 41.813 45.227 98.987 69.973 160.427 69.973 58.027 0 113.493-23.040 154.453-64l17.92-17.92 17.92 17.92c40.96 40.96 96.427 64 154.453 64s113.493-23.040 154.453-64c69.692-69.69 83.029-173.971 40.465-256z" />
<glyph unicode="&#xe91b;" glyph-name="phone" d="M745.813 942.933h-463.36c-42.667 0-77.653-34.987-77.653-77.653v-834.56c0-42.667 34.987-77.653 77.653-77.653h463.36c42.667 0 77.653 34.987 77.653 77.653v835.413c0 42.667-34.987 76.8-77.653 76.8zM282.453 891.733h463.36c14.507 0 25.6-11.947 25.6-25.6v-30.72h-515.413v30.72c0.853 14.507 11.947 25.6 26.453 25.6zM772.267 783.36v-669.867h-515.413v669.867h515.413zM745.813 5.973h-463.36c-14.507 0-25.6 11.947-25.6 25.6v30.72h515.413v-30.72c0-14.507-11.947-25.6-26.453-25.6zM555.52 320c-41.813 0-52.907 54.613-66.56 123.733-4.267 19.627-10.24 49.493-16.213 68.267-5.973-18.773-11.947-47.787-16.213-68.267-13.653-69.12-24.747-123.733-66.56-123.733-38.4 0-50.347 51.2-57.173 78.507-3.413 14.507-16.213 24.747-31.573 24.747h-2.56v51.2h2.56c39.253 0 72.533-26.453 81.067-64 2.56-11.093 5.12-18.773 6.827-24.747 5.973 18.773 11.947 47.787 16.213 68.267 13.653 69.12 24.747 123.733 66.56 123.733s52.907-54.613 66.56-123.733c4.267-19.627 10.24-49.493 16.213-68.267 5.973 18.773 11.947 47.787 16.213 68.267 13.653 69.12 24.747 123.733 66.56 123.733 38.4 0 50.347-51.2 57.173-78.507 3.413-14.507 16.213-24.747 31.573-24.747v-51.2c-39.253 0-72.533 26.453-81.067 64-2.56 11.093-5.12 18.773-6.827 24.747-5.973-18.773-11.947-47.787-16.213-68.267-13.653-69.12-24.747-123.733-66.56-123.733z" />
<glyph unicode="&#xe91c;" glyph-name="search" horiz-adv-x="951" d="M658.286 475.428c0 141.143-114.857 256-256 256s-256-114.857-256-256 114.857-256 256-256 256 114.857 256 256zM950.857 0c0-40-33.143-73.143-73.143-73.143-19.429 0-38.286 8-51.429 21.714l-196 195.429c-66.857-46.286-146.857-70.857-228-70.857-222.286 0-402.286 180-402.286 402.286s180 402.286 402.286 402.286 402.286-180 402.286-402.286c0-81.143-24.571-161.143-70.857-228l196-196c13.143-13.143 21.143-32 21.143-51.429z" />
<glyph unicode="&#xe91d;" glyph-name="shopping-cart" horiz-adv-x="951" d="M365.714 73.143c0-40-33.143-73.143-73.143-73.143s-73.143 33.143-73.143 73.143 33.143 73.143 73.143 73.143 73.143-33.143 73.143-73.143zM877.714 73.143c0-40-33.143-73.143-73.143-73.143s-73.143 33.143-73.143 73.143 33.143 73.143 73.143 73.143 73.143-33.143 73.143-73.143zM950.857 694.857v-292.571c0-18.286-14.286-34.286-32.571-36.571l-596.571-69.714c2.857-13.143 7.429-26.286 7.429-40 0-13.143-8-25.143-13.714-36.571h525.714c20 0 36.571-16.571 36.571-36.571s-16.571-36.571-36.571-36.571h-585.143c-20 0-36.571 16.571-36.571 36.571 0 17.714 25.714 60.571 34.857 78.286l-101.143 470.286h-116.571c-20 0-36.571 16.571-36.571 36.571s16.571 36.571 36.571 36.571h146.286c38.286 0 39.429-45.714 45.143-73.143h686.286c20 0 36.571-16.571 36.571-36.571z" />
</font>
</defs>
</svg>
